<?xml version="1.0" standalone="no"?>
<!DOCTYPE svg PUBLIC "-//W3C//DTD SVG 1.1//EN" "http://www.w3.org/Graphics/SVG/1.1/DTD/svg11.dtd" >
<svg xmlns="http://www.w3.org/2000/svg" xmlns:xlink="http://www.w3.org/1999/xlink" version="1.1">
<metadata>
Created by FontForge 20201107 at Mon Nov 16 10:06:12 2020
 By Unknown
</metadata>
<defs>
<font id="ULTRARegular" horiz-adv-x="1108" >
  <font-face 
    font-family="ULTRA"
    font-weight="400"
    font-stretch="normal"
    units-per-em="1000"
    panose-1="0 0 0 0 0 0 0 0 0 0"
    ascent="800"
    descent="-200"
    cap-height="700"
    bbox="-100 -88 1319 700"
    underline-thickness="50"
    underline-position="-150"
    unicode-range="U+000A-00AD"
  />
<missing-glyph horiz-adv-x="527" 
d="M50 700h427v-700h-427v700zM78 680l185 -309l186 309h-371zM251 350l-180 300v-601zM264 329l-185 -308h370zM276 350l181 -303v605z" />
    <glyph glyph-name=".notdef" horiz-adv-x="527" 
d="M50 700h427v-700h-427v700zM78 680l185 -309l186 309h-371zM251 350l-180 300v-601zM264 329l-185 -308h370zM276 350l181 -303v605z" />
    <glyph glyph-name=".null" horiz-adv-x="0" 
 />
    <glyph glyph-name="nonmarkingreturn" horiz-adv-x="333" 
 />
    <glyph glyph-name="controlLF" unicode="&#xa;" horiz-adv-x="0" 
 />
    <glyph glyph-name="controlCR" unicode="&#xd;" horiz-adv-x="0" 
 />
    <glyph glyph-name="space" unicode=" " horiz-adv-x="593" 
 />
    <glyph glyph-name="zero" unicode="0" 
d="M737 0h-678q-49 0 -59 49q-9 44 19 105l174 392q27 61 76 105q53 49 102 49h678q49 0 59 -49q9 -44 -19 -105l-174 -392q-27 -62 -76 -105q-53 -49 -102 -49zM730 178q3 0 13 9q14 13 23 32l116 261q9 19 6 33q-2 9 -6 9h-505q-4 0 -14 -9q-14 -13 -23 -33l-116 -261
q-9 -19 -6 -32q2 -9 6 -9h506z" />
    <glyph glyph-name="one" unicode="1" horiz-adv-x="494" 
d="M184 0h-186l206 463h9h-178l251 237h210z" />
    <glyph glyph-name="two" unicode="2" horiz-adv-x="1156" 
d="M-2 0l127 285q27 61 75 105q53 49 102 49h592q3 0 13 9q15 13 23 32q9 19 6 33q-2 9 -5 9h-505q-4 0 -13 -9q-15 -14 -27 -40h-178l33 73q27 61 75 105q54 49 103 49h678q49 0 59 -49q9 -44 -19 -105l-58 -131q-27 -62 -76 -106q-53 -48 -102 -48h-591q-4 0 -13 -9
q-15 -13 -23 -33l-19 -41h719l-79 -178h-897z" />
    <glyph glyph-name="three" unicode="3" 
d="M59 0q-49 0 -59 49q-9 44 19 105l39 89h178q-19 -43 -16 -56q2 -9 5 -9h505q3 0 13 9q15 13 23 32q9 20 6 33q-2 9 -6 9h-486l80 178h486q3 0 13 9q15 13 23 32q9 19 6 33q-2 9 -6 9h-504q-4 0 -13 -9q-15 -13 -34 -56h-178l40 89q27 61 76 105q53 49 102 49h678
q49 0 59 -49q9 -44 -19 -105l-58 -131q-15 -35 -48 -64v-1q6 -31 -10 -65l-58 -131q-28 -62 -76 -105q-53 -49 -102 -49h-678z" />
    <glyph glyph-name="four" unicode="4" horiz-adv-x="950" 
d="M640 0h-181l58 130h-519l72 162l677 408h205l-174 -391h153l-79 -179h-154zM366 309h231l88 197z" />
    <glyph glyph-name="five" unicode="5" horiz-adv-x="1156" 
d="M359 521l-11 -25q-3 -7 0.5 -10t13.5 -1h591q49 0 59 -49q9 -44 -19 -106l-78 -176q-28 -61 -76 -105q-53 -49 -102 -49h-678q-49 0 -59 49q-9 44 19 105l26 61h178q-7 -17 -4 -28q2 -9 6 -9h505q3 0 13 9q14 13 23 32l20 46q9 20 6 33q-2 9 -5 9h-438v-1h-68
q-5 0 -12 -5q-11 -8 -18 -25h-178l188 424h897l-79 -179h-720z" />
    <glyph glyph-name="six" unicode="6" 
d="M341 480l-11 -25q-5 -16 12 -16h591q49 0 58 -49q10 -44 -18 -105l-58 -131q-27 -61 -76 -105q-53 -49 -102 -49h-678q-49 0 -59 49q-9 44 19 105l174 392q27 61 76 105q53 49 102 49h678q49 0 59 -49q9 -44 -19 -105l-29 -66h-178q9 21 6 33q-2 9 -6 9h-504q-4 0 -13 -9
q-15 -14 -24 -33zM225 178h505q3 0 13 9q14 13 23 32.5t6 32.5q-2 9 -6 9h-437h-69q-2 0 -11 -9q-15 -13 -23 -33q-9 -19 -6 -32q2 -9 5 -9z" />
    <glyph glyph-name="seven" unicode="7" horiz-adv-x="1145" 
d="M-2 1l780 521h-511l80 178h800l-65 -145l-827 -554h-257z" />
    <glyph glyph-name="eight" unicode="8" 
d="M1107 651q10 -44 -18 -105l-58 -131q-15 -35 -59 -60q-1 -1 -3 -2.5t-3 -2.5l0.5 -2t0.5 -4q22 -25 6 -59l-58 -131q-27 -61 -76 -105q-53 -49 -102 -49h-678q-49 0 -59 49q-9 43 19 105l58 131q15 34 58 59q1 1 3 2.5t3 2.5l-1 2v4q-21 26 -5 60l58 131q27 61 75 105
q54 49 103 49h678q49 0 58 -49zM766 219.5q9 19.5 6 32.5q-2 9 -6 9h-504q-4 0 -13 -9q-15 -13 -23 -33q-9 -19 -6 -32q2 -9 5 -9h505q3 0 13 9q14 13 23 32.5zM882 480q9 20 6 33q-2 9 -6 9h-504q-4 0 -13 -9q-15 -14 -23 -33q-9 -19 -6 -32q2 -9 5 -9h505q3 0 13 9
q15 13 23 32z" />
    <glyph glyph-name="nine" unicode="9" 
d="M766 220l11 25q6 16 -11 16h-591q-49 0 -59 49q-9 44 19 105l58 131q27 62 76 105q53 49 102 49h678q49 0 59 -49q9 -43 -19 -105l-174 -391q-27 -62 -76 -106q-53 -49 -102 -49h-678q-49 0 -59 49q-9 44 19 106l28 65h179q-10 -21 -6 -33q2 -9 5 -9h505q4 0 13 9
q15 13 23 33zM883 522h-505q-4 0 -13 -9q-15 -13 -23.5 -32.5t-5.5 -32.5q2 -9 5 -9h438h69q2 1 11 9q15 13 23 33q9 19 6 32q-2 9 -5 9z" />
    <glyph glyph-name="A" unicode="A" horiz-adv-x="1136" 
d="M825 700l127 -700h-212l-17 96h-489l-102 -96h-213l750 700h156zM424 274h268l-37 218z" />
    <glyph glyph-name="A" unicode="&#xe5;" horiz-adv-x="1136" 
d="M825 700l127 -700h-212l-17 96h-489l-102 -96h-213l750 700h156zM424 274h268l-37 218z" />
    <glyph glyph-name="A" unicode="&#xe4;" horiz-adv-x="1136" 
d="M825 700l127 -700h-212l-17 96h-489l-102 -96h-213l750 700h156zM424 274h268l-37 218z" />
    <glyph glyph-name="A" unicode="&#xe3;" horiz-adv-x="1136" 
d="M825 700l127 -700h-212l-17 96h-489l-102 -96h-213l750 700h156zM424 274h268l-37 218z" />
    <glyph glyph-name="A" unicode="&#xe2;" horiz-adv-x="1136" 
d="M825 700l127 -700h-212l-17 96h-489l-102 -96h-213l750 700h156zM424 274h268l-37 218z" />
    <glyph glyph-name="A" unicode="&#xe1;" horiz-adv-x="1136" 
d="M825 700l127 -700h-212l-17 96h-489l-102 -96h-213l750 700h156zM424 274h268l-37 218z" />
    <glyph glyph-name="A" unicode="&#xe0;" horiz-adv-x="1136" 
d="M825 700l127 -700h-212l-17 96h-489l-102 -96h-213l750 700h156zM424 274h268l-37 218z" />
    <glyph glyph-name="A" unicode="&#xc5;" horiz-adv-x="1136" 
d="M825 700l127 -700h-212l-17 96h-489l-102 -96h-213l750 700h156zM424 274h268l-37 218z" />
    <glyph glyph-name="A" unicode="&#xc4;" horiz-adv-x="1136" 
d="M825 700l127 -700h-212l-17 96h-489l-102 -96h-213l750 700h156zM424 274h268l-37 218z" />
    <glyph glyph-name="A" unicode="&#xc3;" horiz-adv-x="1136" 
d="M825 700l127 -700h-212l-17 96h-489l-102 -96h-213l750 700h156zM424 274h268l-37 218z" />
    <glyph glyph-name="A" unicode="&#xc2;" horiz-adv-x="1136" 
d="M825 700l127 -700h-212l-17 96h-489l-102 -96h-213l750 700h156zM424 274h268l-37 218z" />
    <glyph glyph-name="A" unicode="&#xc1;" horiz-adv-x="1136" 
d="M825 700l127 -700h-212l-17 96h-489l-102 -96h-213l750 700h156zM424 274h268l-37 218z" />
    <glyph glyph-name="A" unicode="&#xc0;" horiz-adv-x="1136" 
d="M825 700l127 -700h-212l-17 96h-489l-102 -96h-213l750 700h156zM424 274h268l-37 218z" />
    <glyph glyph-name="A" unicode="a" horiz-adv-x="1136" 
d="M825 700l127 -700h-212l-17 96h-489l-102 -96h-213l750 700h156zM424 274h268l-37 218z" />
    <glyph glyph-name="B" unicode="B" horiz-adv-x="1157" 
d="M1157 651q9 -44 -18 -105l-58 -131q-16 -35 -66 -64l-1 -2q24 -30 8 -64l-58 -131q-27 -61 -75 -105q-54 -49 -102 -49h-789l79 178l59 131l57 130l117 261h788q49 0 59 -49zM815.5 219.5q8.5 19.5 5.5 32.5q-1 9 -5 9h-483l-36 -83h482q4 0 13 9q15 13 23.5 32.5z
M932 480q8 19 6 33q-2 9 -6 9h-482l-37 -83h482q4 0 14 9q14 13 23 32z" />
    <glyph glyph-name="B" unicode="b" horiz-adv-x="1157" 
d="M1157 651q9 -44 -18 -105l-58 -131q-16 -35 -66 -64l-1 -2q24 -30 8 -64l-58 -131q-27 -61 -75 -105q-54 -49 -102 -49h-789l79 178l59 131l57 130l117 261h788q49 0 59 -49zM815.5 219.5q8.5 19.5 5.5 32.5q-1 9 -5 9h-483l-36 -83h482q4 0 13 9q15 13 23.5 32.5z
M932 480q8 19 6 33q-2 9 -6 9h-482l-37 -83h482q4 0 14 9q14 13 23 32z" />
    <glyph glyph-name="C" unicode="C" 
d="M1108 651q9 -44 -19 -105l-39 -89h-178q19 42 16 56q-2 9 -6 9h-504q-4 0 -13 -9q-15 -13 -23 -33l-117 -261q-8 -19 -6 -32q2 -9 6 -9h504q4 0 14 9q14 13 34 56h178l-40 -89q-27 -61 -76 -105q-53 -49 -102 -49h-678q-49 0 -59 49q-9 44 19 105l174 391q27 62 76 106
q53 49 102 49h678q49 0 59 -49z" />
    <glyph glyph-name="C" unicode="&#xe7;" 
d="M1108 651q9 -44 -19 -105l-39 -89h-178q19 42 16 56q-2 9 -6 9h-504q-4 0 -13 -9q-15 -13 -23 -33l-117 -261q-8 -19 -6 -32q2 -9 6 -9h504q4 0 14 9q14 13 34 56h178l-40 -89q-27 -61 -76 -105q-53 -49 -102 -49h-678q-49 0 -59 49q-9 44 19 105l174 391q27 62 76 106
q53 49 102 49h678q49 0 59 -49z" />
    <glyph glyph-name="C" unicode="&#xc7;" 
d="M1108 651q9 -44 -19 -105l-39 -89h-178q19 42 16 56q-2 9 -6 9h-504q-4 0 -13 -9q-15 -13 -23 -33l-117 -261q-8 -19 -6 -32q2 -9 6 -9h504q4 0 14 9q14 13 34 56h178l-40 -89q-27 -61 -76 -105q-53 -49 -102 -49h-678q-49 0 -59 49q-9 44 19 105l174 391q27 62 76 106
q53 49 102 49h678q49 0 59 -49z" />
    <glyph glyph-name="C" unicode="c" 
d="M1108 651q9 -44 -19 -105l-39 -89h-178q19 42 16 56q-2 9 -6 9h-504q-4 0 -13 -9q-15 -13 -23 -33l-117 -261q-8 -19 -6 -32q2 -9 6 -9h504q4 0 14 9q14 13 34 56h178l-40 -89q-27 -61 -76 -105q-53 -49 -102 -49h-678q-49 0 -59 49q-9 44 19 105l174 391q27 62 76 106
q53 49 102 49h678q49 0 59 -49z" />
    <glyph glyph-name="D" unicode="D" horiz-adv-x="1069" 
d="M1069 651q9 -44 -19 -105l-174 -392q-27 -61 -76 -105q-53 -49 -102 -49h-787l79 178l199 446l34 76h787q49 0 59 -49zM843 480q9 19 2 33q-5 9 -11 9h-471l-154 -344h472q6 0 19 9q19 13 27 32z" />
    <glyph glyph-name="D" unicode="d" horiz-adv-x="1069" 
d="M1069 651q9 -44 -19 -105l-174 -392q-27 -61 -76 -105q-53 -49 -102 -49h-787l79 178l199 446l34 76h787q49 0 59 -49zM843 480q9 19 2 33q-5 9 -11 9h-471l-154 -344h472q6 0 19 9q19 13 27 32z" />
    <glyph glyph-name="E" unicode="E" horiz-adv-x="1196" 
d="M407 513q-15 -13 -23 -33q-9 -19 -6 -32q2 -9 6 -9h701l-79 -178h-702q-4 0 -13 -9q-15 -13 -23 -33q-9 -19 -6 -32q2 -9 5 -9h702l-79 -178h-789q-49 0 -59 49q-9 44 19 105l174 391q27 62 76 106q53 49 102 49h788l-79 -178h-702q-3 0 -13 -9z" />
    <glyph glyph-name="E" unicode="&#xeb;" horiz-adv-x="1196" 
d="M407 513q-15 -13 -23 -33q-9 -19 -6 -32q2 -9 6 -9h701l-79 -178h-702q-4 0 -13 -9q-15 -13 -23 -33q-9 -19 -6 -32q2 -9 5 -9h702l-79 -178h-789q-49 0 -59 49q-9 44 19 105l174 391q27 62 76 106q53 49 102 49h788l-79 -178h-702q-3 0 -13 -9z" />
    <glyph glyph-name="E" unicode="&#xea;" horiz-adv-x="1196" 
d="M407 513q-15 -13 -23 -33q-9 -19 -6 -32q2 -9 6 -9h701l-79 -178h-702q-4 0 -13 -9q-15 -13 -23 -33q-9 -19 -6 -32q2 -9 5 -9h702l-79 -178h-789q-49 0 -59 49q-9 44 19 105l174 391q27 62 76 106q53 49 102 49h788l-79 -178h-702q-3 0 -13 -9z" />
    <glyph glyph-name="E" unicode="&#xe9;" horiz-adv-x="1196" 
d="M407 513q-15 -13 -23 -33q-9 -19 -6 -32q2 -9 6 -9h701l-79 -178h-702q-4 0 -13 -9q-15 -13 -23 -33q-9 -19 -6 -32q2 -9 5 -9h702l-79 -178h-789q-49 0 -59 49q-9 44 19 105l174 391q27 62 76 106q53 49 102 49h788l-79 -178h-702q-3 0 -13 -9z" />
    <glyph glyph-name="E" unicode="&#xe8;" horiz-adv-x="1196" 
d="M407 513q-15 -13 -23 -33q-9 -19 -6 -32q2 -9 6 -9h701l-79 -178h-702q-4 0 -13 -9q-15 -13 -23 -33q-9 -19 -6 -32q2 -9 5 -9h702l-79 -178h-789q-49 0 -59 49q-9 44 19 105l174 391q27 62 76 106q53 49 102 49h788l-79 -178h-702q-3 0 -13 -9z" />
    <glyph glyph-name="E" unicode="&#xcb;" horiz-adv-x="1196" 
d="M407 513q-15 -13 -23 -33q-9 -19 -6 -32q2 -9 6 -9h701l-79 -178h-702q-4 0 -13 -9q-15 -13 -23 -33q-9 -19 -6 -32q2 -9 5 -9h702l-79 -178h-789q-49 0 -59 49q-9 44 19 105l174 391q27 62 76 106q53 49 102 49h788l-79 -178h-702q-3 0 -13 -9z" />
    <glyph glyph-name="E" unicode="&#xca;" horiz-adv-x="1196" 
d="M407 513q-15 -13 -23 -33q-9 -19 -6 -32q2 -9 6 -9h701l-79 -178h-702q-4 0 -13 -9q-15 -13 -23 -33q-9 -19 -6 -32q2 -9 5 -9h702l-79 -178h-789q-49 0 -59 49q-9 44 19 105l174 391q27 62 76 106q53 49 102 49h788l-79 -178h-702q-3 0 -13 -9z" />
    <glyph glyph-name="E" unicode="&#xc9;" horiz-adv-x="1196" 
d="M407 513q-15 -13 -23 -33q-9 -19 -6 -32q2 -9 6 -9h701l-79 -178h-702q-4 0 -13 -9q-15 -13 -23 -33q-9 -19 -6 -32q2 -9 5 -9h702l-79 -178h-789q-49 0 -59 49q-9 44 19 105l174 391q27 62 76 106q53 49 102 49h788l-79 -178h-702q-3 0 -13 -9z" />
    <glyph glyph-name="E" unicode="&#xc8;" horiz-adv-x="1196" 
d="M407 513q-15 -13 -23 -33q-9 -19 -6 -32q2 -9 6 -9h701l-79 -178h-702q-4 0 -13 -9q-15 -13 -23 -33q-9 -19 -6 -32q2 -9 5 -9h702l-79 -178h-789q-49 0 -59 49q-9 44 19 105l174 391q27 62 76 106q53 49 102 49h788l-79 -178h-702q-3 0 -13 -9z" />
    <glyph glyph-name="E" unicode="e" horiz-adv-x="1196" 
d="M407 513q-15 -13 -23 -33q-9 -19 -6 -32q2 -9 6 -9h701l-79 -178h-702q-4 0 -13 -9q-15 -13 -23 -33q-9 -19 -6 -32q2 -9 5 -9h702l-79 -178h-789q-49 0 -59 49q-9 44 19 105l174 391q27 62 76 106q53 49 102 49h788l-79 -178h-702q-3 0 -13 -9z" />
    <glyph glyph-name="F" unicode="F" horiz-adv-x="1170" 
d="M378 513q-15 -14 -23 -33q-9 -19 -6 -32q1 -9 5 -9h702l-79 -178h-702q-4 0 -13 -9q-10 -9 -17 -19l-103 -233h-178l98 219h-2l146 326q27 62 76 106q53 49 102 49h788l-79 -178h-702q-4 0 -13 -9z" />
    <glyph glyph-name="F" unicode="f" horiz-adv-x="1170" 
d="M378 513q-15 -14 -23 -33q-9 -19 -6 -32q1 -9 5 -9h702l-79 -178h-702q-4 0 -13 -9q-10 -9 -17 -19l-103 -233h-178l98 219h-2l146 326q27 62 76 106q53 49 102 49h788l-79 -178h-702q-4 0 -13 -9z" />
    <glyph glyph-name="G" unicode="G" 
d="M1108 651q9 -44 -19 -105l-29 -66h-178q9 21 6 33q-2 9 -6 9h-504q-4 0 -13 -9q-15 -13 -23 -33l-117 -261q-8 -19 -6 -32q2 -9 6 -9h504q4 0 14 9q14 13 23 32l18 42h-379l79 178h558l-127 -285q-27 -61 -76 -105q-53 -49 -102 -49h-678q-49 0 -59 49q-9 44 19 105
l174 391q27 62 76 106q53 49 102 49h678q49 0 59 -49z" />
    <glyph glyph-name="G" unicode="g" 
d="M1108 651q9 -44 -19 -105l-29 -66h-178q9 21 6 33q-2 9 -6 9h-504q-4 0 -13 -9q-15 -13 -23 -33l-117 -261q-8 -19 -6 -32q2 -9 6 -9h504q4 0 14 9q14 13 23 32l18 42h-379l79 178h558l-127 -285q-27 -61 -76 -105q-53 -49 -102 -49h-678q-49 0 -59 49q-9 44 19 105
l174 391q27 62 76 106q53 49 102 49h678q49 0 59 -49z" />
    <glyph glyph-name="H" unicode="H" horiz-adv-x="1204" 
d="M1028 700h178l-311 -700h-179l117 261h-541l-116 -261h-178l312 700h178l-117 -261h541z" />
    <glyph glyph-name="H" unicode="h" horiz-adv-x="1204" 
d="M1028 700h178l-311 -700h-179l117 261h-541l-116 -261h-178l312 700h178l-117 -261h541z" />
    <glyph glyph-name="I" unicode="I" horiz-adv-x="485" 
d="M310 700h177l-311 -700h-178z" />
    <glyph glyph-name="I" unicode="&#xef;" horiz-adv-x="485" 
d="M310 700h177l-311 -700h-178z" />
    <glyph glyph-name="I" unicode="&#xee;" horiz-adv-x="485" 
d="M310 700h177l-311 -700h-178z" />
    <glyph glyph-name="I" unicode="&#xed;" horiz-adv-x="485" 
d="M310 700h177l-311 -700h-178z" />
    <glyph glyph-name="I" unicode="&#xec;" horiz-adv-x="485" 
d="M310 700h177l-311 -700h-178z" />
    <glyph glyph-name="I" unicode="&#xcf;" horiz-adv-x="485" 
d="M310 700h177l-311 -700h-178z" />
    <glyph glyph-name="I" unicode="&#xce;" horiz-adv-x="485" 
d="M310 700h177l-311 -700h-178z" />
    <glyph glyph-name="I" unicode="&#xcd;" horiz-adv-x="485" 
d="M310 700h177l-311 -700h-178z" />
    <glyph glyph-name="I" unicode="&#xcc;" horiz-adv-x="485" 
d="M310 700h177l-311 -700h-178z" />
    <glyph glyph-name="I" unicode="i" horiz-adv-x="485" 
d="M310 700h177l-311 -700h-178z" />
    <glyph glyph-name="J" unicode="J" horiz-adv-x="1156" 
d="M993 700h165l-243 -546q-27 -61 -76 -105q-53 -49 -102 -49h-678q-49 0 -59 49q-9 44 19 105l68 155h166l-40 -90q-9 -19 -6 -32q2 -9 6 -9h529q4 0 14 9q14 13 23 32z" />
    <glyph glyph-name="J" unicode="j" horiz-adv-x="1156" 
d="M993 700h165l-243 -546q-27 -61 -76 -105q-53 -49 -102 -49h-678q-49 0 -59 49q-9 44 19 105l68 155h166l-40 -90q-9 -19 -6 -32q2 -9 6 -9h529q4 0 14 9q14 13 23 32z" />
    <glyph glyph-name="K" unicode="K" horiz-adv-x="1161" 
d="M1163 700l-384 -350l72 -350h-186l-53 261h-320l-116 -261h-178l312 700h178l-117 -261h320l286 261h186z" />
    <glyph glyph-name="K" unicode="k" horiz-adv-x="1161" 
d="M1163 700l-384 -350l72 -350h-186l-53 261h-320l-116 -261h-178l312 700h178l-117 -261h320l286 261h186z" />
    <glyph glyph-name="L" unicode="L" horiz-adv-x="801" 
d="M235 178h568l-80 -178h-664q-49 0 -59 49q-9 44 19 105l111 250l132 296h177l-131 -296l-82 -185q-9 -19 -2 -32q5 -9 11 -9z" />
    <glyph glyph-name="L" unicode="l" horiz-adv-x="801" 
d="M235 178h568l-80 -178h-664q-49 0 -59 49q-9 44 19 105l111 250l132 296h177l-131 -296l-82 -185q-9 -19 -2 -32q5 -9 11 -9z" />
    <glyph glyph-name="M" unicode="M" horiz-adv-x="1201" 
d="M1028 700h175l-311 -700h-178l169 380l-383 -380h-110l-45 380l-169 -380h-178l312 700h175l60 -474z" />
    <glyph glyph-name="M" unicode="m" horiz-adv-x="1201" 
d="M1028 700h175l-311 -700h-178l169 380l-383 -380h-110l-45 380l-169 -380h-178l312 700h175l60 -474z" />
    <glyph glyph-name="N" unicode="N" horiz-adv-x="1153" 
d="M977 700h178l-311 -700h-200l-259 471l-209 -471h-178l312 700h199l259 -471z" />
    <glyph glyph-name="N" unicode="&#xf1;" horiz-adv-x="1153" 
d="M977 700h178l-311 -700h-200l-259 471l-209 -471h-178l312 700h199l259 -471z" />
    <glyph glyph-name="N" unicode="&#xd1;" horiz-adv-x="1153" 
d="M977 700h178l-311 -700h-200l-259 471l-209 -471h-178l312 700h199l259 -471z" />
    <glyph glyph-name="N" unicode="n" horiz-adv-x="1153" 
d="M977 700h178l-311 -700h-200l-259 471l-209 -471h-178l312 700h199l259 -471z" />
    <glyph glyph-name="O" unicode="O" 
d="M1108 651q9 -44 -19 -105l-174 -392q-27 -61 -76 -105q-53 -49 -102 -49h-678q-49 0 -59 49q-9 44 19 105l174 392q27 61 76 105q53 49 102 49h678q49 0 59 -49zM882 480q9 19 6 33q-2 9 -6 9h-506q-3 0 -13 -9q-14 -13 -23 -33l-116 -261q-9 -19 -6 -32q2 -9 6 -9h506
q3 0 13 9q14 13 23 32z" />
    <glyph glyph-name="O" unicode="&#xf8;" 
d="M1108 651q9 -44 -19 -105l-174 -392q-27 -61 -76 -105q-53 -49 -102 -49h-678q-49 0 -59 49q-9 44 19 105l174 392q27 61 76 105q53 49 102 49h678q49 0 59 -49zM882 480q9 19 6 33q-2 9 -6 9h-506q-3 0 -13 -9q-14 -13 -23 -33l-116 -261q-9 -19 -6 -32q2 -9 6 -9h506
q3 0 13 9q14 13 23 32z" />
    <glyph glyph-name="O" unicode="&#xf6;" 
d="M1108 651q9 -44 -19 -105l-174 -392q-27 -61 -76 -105q-53 -49 -102 -49h-678q-49 0 -59 49q-9 44 19 105l174 392q27 61 76 105q53 49 102 49h678q49 0 59 -49zM882 480q9 19 6 33q-2 9 -6 9h-506q-3 0 -13 -9q-14 -13 -23 -33l-116 -261q-9 -19 -6 -32q2 -9 6 -9h506
q3 0 13 9q14 13 23 32z" />
    <glyph glyph-name="O" unicode="&#xf5;" 
d="M1108 651q9 -44 -19 -105l-174 -392q-27 -61 -76 -105q-53 -49 -102 -49h-678q-49 0 -59 49q-9 44 19 105l174 392q27 61 76 105q53 49 102 49h678q49 0 59 -49zM882 480q9 19 6 33q-2 9 -6 9h-506q-3 0 -13 -9q-14 -13 -23 -33l-116 -261q-9 -19 -6 -32q2 -9 6 -9h506
q3 0 13 9q14 13 23 32z" />
    <glyph glyph-name="O" unicode="&#xf4;" 
d="M1108 651q9 -44 -19 -105l-174 -392q-27 -61 -76 -105q-53 -49 -102 -49h-678q-49 0 -59 49q-9 44 19 105l174 392q27 61 76 105q53 49 102 49h678q49 0 59 -49zM882 480q9 19 6 33q-2 9 -6 9h-506q-3 0 -13 -9q-14 -13 -23 -33l-116 -261q-9 -19 -6 -32q2 -9 6 -9h506
q3 0 13 9q14 13 23 32z" />
    <glyph glyph-name="O" unicode="&#xf3;" 
d="M1108 651q9 -44 -19 -105l-174 -392q-27 -61 -76 -105q-53 -49 -102 -49h-678q-49 0 -59 49q-9 44 19 105l174 392q27 61 76 105q53 49 102 49h678q49 0 59 -49zM882 480q9 19 6 33q-2 9 -6 9h-506q-3 0 -13 -9q-14 -13 -23 -33l-116 -261q-9 -19 -6 -32q2 -9 6 -9h506
q3 0 13 9q14 13 23 32z" />
    <glyph glyph-name="O" unicode="&#xf2;" 
d="M1108 651q9 -44 -19 -105l-174 -392q-27 -61 -76 -105q-53 -49 -102 -49h-678q-49 0 -59 49q-9 44 19 105l174 392q27 61 76 105q53 49 102 49h678q49 0 59 -49zM882 480q9 19 6 33q-2 9 -6 9h-506q-3 0 -13 -9q-14 -13 -23 -33l-116 -261q-9 -19 -6 -32q2 -9 6 -9h506
q3 0 13 9q14 13 23 32z" />
    <glyph glyph-name="O" unicode="&#xd8;" 
d="M1108 651q9 -44 -19 -105l-174 -392q-27 -61 -76 -105q-53 -49 -102 -49h-678q-49 0 -59 49q-9 44 19 105l174 392q27 61 76 105q53 49 102 49h678q49 0 59 -49zM882 480q9 19 6 33q-2 9 -6 9h-506q-3 0 -13 -9q-14 -13 -23 -33l-116 -261q-9 -19 -6 -32q2 -9 6 -9h506
q3 0 13 9q14 13 23 32z" />
    <glyph glyph-name="O" unicode="&#xd6;" 
d="M1108 651q9 -44 -19 -105l-174 -392q-27 -61 -76 -105q-53 -49 -102 -49h-678q-49 0 -59 49q-9 44 19 105l174 392q27 61 76 105q53 49 102 49h678q49 0 59 -49zM882 480q9 19 6 33q-2 9 -6 9h-506q-3 0 -13 -9q-14 -13 -23 -33l-116 -261q-9 -19 -6 -32q2 -9 6 -9h506
q3 0 13 9q14 13 23 32z" />
    <glyph glyph-name="O" unicode="&#xd5;" 
d="M1108 651q9 -44 -19 -105l-174 -392q-27 -61 -76 -105q-53 -49 -102 -49h-678q-49 0 -59 49q-9 44 19 105l174 392q27 61 76 105q53 49 102 49h678q49 0 59 -49zM882 480q9 19 6 33q-2 9 -6 9h-506q-3 0 -13 -9q-14 -13 -23 -33l-116 -261q-9 -19 -6 -32q2 -9 6 -9h506
q3 0 13 9q14 13 23 32z" />
    <glyph glyph-name="O" unicode="&#xd4;" 
d="M1108 651q9 -44 -19 -105l-174 -392q-27 -61 -76 -105q-53 -49 -102 -49h-678q-49 0 -59 49q-9 44 19 105l174 392q27 61 76 105q53 49 102 49h678q49 0 59 -49zM882 480q9 19 6 33q-2 9 -6 9h-506q-3 0 -13 -9q-14 -13 -23 -33l-116 -261q-9 -19 -6 -32q2 -9 6 -9h506
q3 0 13 9q14 13 23 32z" />
    <glyph glyph-name="O" unicode="&#xd3;" 
d="M1108 651q9 -44 -19 -105l-174 -392q-27 -61 -76 -105q-53 -49 -102 -49h-678q-49 0 -59 49q-9 44 19 105l174 392q27 61 76 105q53 49 102 49h678q49 0 59 -49zM882 480q9 19 6 33q-2 9 -6 9h-506q-3 0 -13 -9q-14 -13 -23 -33l-116 -261q-9 -19 -6 -32q2 -9 6 -9h506
q3 0 13 9q14 13 23 32z" />
    <glyph glyph-name="O" unicode="&#xd2;" 
d="M1108 651q9 -44 -19 -105l-174 -392q-27 -61 -76 -105q-53 -49 -102 -49h-678q-49 0 -59 49q-9 44 19 105l174 392q27 61 76 105q53 49 102 49h678q49 0 59 -49zM882 480q9 19 6 33q-2 9 -6 9h-506q-3 0 -13 -9q-14 -13 -23 -33l-116 -261q-9 -19 -6 -32q2 -9 6 -9h506
q3 0 13 9q14 13 23 32z" />
    <glyph glyph-name="O" unicode="o" 
d="M1108 651q9 -44 -19 -105l-174 -392q-27 -61 -76 -105q-53 -49 -102 -49h-678q-49 0 -59 49q-9 44 19 105l174 392q27 61 76 105q53 49 102 49h678q49 0 59 -49zM882 480q9 19 6 33q-2 9 -6 9h-506q-3 0 -13 -9q-14 -13 -23 -33l-116 -261q-9 -19 -6 -32q2 -9 6 -9h506
q3 0 13 9q14 13 23 32z" />
    <glyph glyph-name="P" unicode="P" horiz-adv-x="1156" 
d="M1156 651q9 -44 -19 -105l-86 -195q-27 -61 -76 -105q-53 -49 -102 -49h-568l-88 -197h-219l167 375l111 249l34 76h787q49 0 59 -49zM932 484q7 16 0 29q-4 9 -9 9h-473l-66 -147h473q6 0 18 9q17 12 25 29q1 2 32 71z" />
    <glyph glyph-name="P" unicode="p" horiz-adv-x="1156" 
d="M1156 651q9 -44 -19 -105l-86 -195q-27 -61 -76 -105q-53 -49 -102 -49h-568l-88 -197h-219l167 375l111 249l34 76h787q49 0 59 -49zM932 484q7 16 0 29q-4 9 -9 9h-473l-66 -147h473q6 0 18 9q17 12 25 29q1 2 32 71z" />
    <glyph glyph-name="Q" unicode="Q" 
d="M1108 651q9 -44 -19 -105l-174 -392q-27 -61 -76 -105q-53 -49 -102 -49h-256l-39 -88h-175l39 88h-247q-49 0 -59 49q-9 44 19 105l174 392q27 61 76 105q53 49 102 49h678q49 0 59 -49zM882 480q9 19 6 33q-2 9 -6 9h-505q-4 0 -14 -9q-14 -13 -23 -33l-116 -261
q-9 -19 -6 -32q2 -9 6 -9h506q3 0 13 9q15 13 23 32z" />
    <glyph glyph-name="Q" unicode="q" 
d="M1108 651q9 -44 -19 -105l-174 -392q-27 -61 -76 -105q-53 -49 -102 -49h-256l-39 -88h-175l39 88h-247q-49 0 -59 49q-9 44 19 105l174 392q27 61 76 105q53 49 102 49h678q49 0 59 -49zM882 480q9 19 6 33q-2 9 -6 9h-505q-4 0 -14 -9q-14 -13 -23 -33l-116 -261
q-9 -19 -6 -32q2 -9 6 -9h506q3 0 13 9q15 13 23 32z" />
    <glyph glyph-name="R" unicode="R" horiz-adv-x="1156" 
d="M1156 651q9 -44 -19 -105l-86 -195q-27 -61 -76 -105q-53 -49 -102 -49h-12l43 -197h-191l-42 197h-366l-88 -197h-219l167 375l111 249l34 76h787q49 0 59 -49zM932 484q7 15 1 29q-5 9 -10 9h-473l-65 -147h473q5 0 17 9q17 12 25 29q1 2 32 71z" />
    <glyph glyph-name="R" unicode="r" horiz-adv-x="1156" 
d="M1156 651q9 -44 -19 -105l-86 -195q-27 -61 -76 -105q-53 -49 -102 -49h-12l43 -197h-191l-42 197h-366l-88 -197h-219l167 375l111 249l34 76h787q49 0 59 -49zM932 484q7 15 1 29q-5 9 -10 9h-473l-65 -147h473q5 0 17 9q17 12 25 29q1 2 32 71z" />
    <glyph glyph-name="S" unicode="S" horiz-adv-x="1120" 
d="M1119 649q9 -43 -17 -103l-31 -69h-191q12 26 8 38q-1 7 0 7h-504q1 0 -5 -7q-16 -14 -25 -34.5t-7 -35.5q2 -6 0 -6h591q55 0 65 -51q9 -43 -18 -103l-58 -131q-26 -60 -74 -103q-56 -51 -110 -51h-678q-54 0 -65 51q-9 43 18 103l31 69h190q-11 -26 -8 -39q2 -6 0 -6
h505q-2 0 5 6q15 15 24.5 35.5t6.5 34.5q-1 7 0 7h-591q-54 0 -65 51q-8 43 18 103l58 131q27 60 74 103q56 51 111 51h678q54 0 64 -51z" />
    <glyph glyph-name="S" unicode="s" horiz-adv-x="1120" 
d="M1119 649q9 -43 -17 -103l-31 -69h-191q12 26 8 38q-1 7 0 7h-504q1 0 -5 -7q-16 -14 -25 -34.5t-7 -35.5q2 -6 0 -6h591q55 0 65 -51q9 -43 -18 -103l-58 -131q-26 -60 -74 -103q-56 -51 -110 -51h-678q-54 0 -65 51q-9 43 18 103l31 69h190q-11 -26 -8 -39q2 -6 0 -6
h505q-2 0 5 6q15 15 24.5 35.5t6.5 34.5q-1 7 0 7h-591q-54 0 -65 51q-8 43 18 103l58 131q27 60 74 103q56 51 111 51h678q54 0 64 -51z" />
    <glyph glyph-name="T" unicode="T" horiz-adv-x="859" 
d="M78 700h811l-79 -178h-317l-233 -522h-178l233 522h-317z" />
    <glyph glyph-name="T" unicode="t" horiz-adv-x="859" 
d="M78 700h811l-79 -178h-317l-233 -522h-178l233 522h-317z" />
    <glyph glyph-name="U" unicode="U" horiz-adv-x="1156" 
d="M980 700h178l-243 -546q-27 -61 -76 -105q-53 -49 -102 -49h-678q-49 0 -59 49q-9 44 19 105l243 546h178l-214 -481q-9 -19 -6 -32q2 -9 5 -9h505q3 0 13 9q15 13 23 32z" />
    <glyph glyph-name="U" unicode="&#xfc;" horiz-adv-x="1156" 
d="M980 700h178l-243 -546q-27 -61 -76 -105q-53 -49 -102 -49h-678q-49 0 -59 49q-9 44 19 105l243 546h178l-214 -481q-9 -19 -6 -32q2 -9 5 -9h505q3 0 13 9q15 13 23 32z" />
    <glyph glyph-name="U" unicode="&#xfb;" horiz-adv-x="1156" 
d="M980 700h178l-243 -546q-27 -61 -76 -105q-53 -49 -102 -49h-678q-49 0 -59 49q-9 44 19 105l243 546h178l-214 -481q-9 -19 -6 -32q2 -9 5 -9h505q3 0 13 9q15 13 23 32z" />
    <glyph glyph-name="U" unicode="&#xfa;" horiz-adv-x="1156" 
d="M980 700h178l-243 -546q-27 -61 -76 -105q-53 -49 -102 -49h-678q-49 0 -59 49q-9 44 19 105l243 546h178l-214 -481q-9 -19 -6 -32q2 -9 5 -9h505q3 0 13 9q15 13 23 32z" />
    <glyph glyph-name="U" unicode="&#xf9;" horiz-adv-x="1156" 
d="M980 700h178l-243 -546q-27 -61 -76 -105q-53 -49 -102 -49h-678q-49 0 -59 49q-9 44 19 105l243 546h178l-214 -481q-9 -19 -6 -32q2 -9 5 -9h505q3 0 13 9q15 13 23 32z" />
    <glyph glyph-name="U" unicode="&#xdc;" horiz-adv-x="1156" 
d="M980 700h178l-243 -546q-27 -61 -76 -105q-53 -49 -102 -49h-678q-49 0 -59 49q-9 44 19 105l243 546h178l-214 -481q-9 -19 -6 -32q2 -9 5 -9h505q3 0 13 9q15 13 23 32z" />
    <glyph glyph-name="U" unicode="&#xdb;" horiz-adv-x="1156" 
d="M980 700h178l-243 -546q-27 -61 -76 -105q-53 -49 -102 -49h-678q-49 0 -59 49q-9 44 19 105l243 546h178l-214 -481q-9 -19 -6 -32q2 -9 5 -9h505q3 0 13 9q15 13 23 32z" />
    <glyph glyph-name="U" unicode="&#xda;" horiz-adv-x="1156" 
d="M980 700h178l-243 -546q-27 -61 -76 -105q-53 -49 -102 -49h-678q-49 0 -59 49q-9 44 19 105l243 546h178l-214 -481q-9 -19 -6 -32q2 -9 5 -9h505q3 0 13 9q15 13 23 32z" />
    <glyph glyph-name="U" unicode="&#xd9;" horiz-adv-x="1156" 
d="M980 700h178l-243 -546q-27 -61 -76 -105q-53 -49 -102 -49h-678q-49 0 -59 49q-9 44 19 105l243 546h178l-214 -481q-9 -19 -6 -32q2 -9 5 -9h505q3 0 13 9q15 13 23 32z" />
    <glyph glyph-name="U" unicode="u" horiz-adv-x="1156" 
d="M980 700h178l-243 -546q-27 -61 -76 -105q-53 -49 -102 -49h-678q-49 0 -59 49q-9 44 19 105l243 546h178l-214 -481q-9 -19 -6 -32q2 -9 5 -9h505q3 0 13 9q15 13 23 32z" />
    <glyph glyph-name="V" unicode="V" horiz-adv-x="1110" 
d="M900 700h212l-750 -700h-156l-127 700h213l85 -492z" />
    <glyph glyph-name="V" unicode="v" horiz-adv-x="1110" 
d="M900 700h212l-750 -700h-156l-127 700h213l85 -492z" />
    <glyph glyph-name="W" unicode="W" horiz-adv-x="1254" 
d="M1114 700h205l-618 -700h-184l2 302l-267 -302h-184l4 700h205l-3 -443l392 443h60l-3 -443z" />
    <glyph glyph-name="W" unicode="w" horiz-adv-x="1254" 
d="M1114 700h205l-618 -700h-184l2 302l-267 -302h-184l4 700h205l-3 -443l392 443h60l-3 -443z" />
    <glyph glyph-name="X" unicode="X" horiz-adv-x="1052" 
d="M1054 700l-471 -350l162 -350h-228l-100 215l-289 -215h-228l471 350l-159 350h227l98 -215l289 215h228z" />
    <glyph glyph-name="X" unicode="x" horiz-adv-x="1052" 
d="M1054 700l-471 -350l162 -350h-228l-100 215l-289 -215h-228l471 350l-159 350h227l98 -215l289 215h228z" />
    <glyph glyph-name="Y" unicode="Y" horiz-adv-x="892" 
d="M759 700h213l-592 -555l-64 -145h-175l64 145l-97 555h213l58 -361z" />
    <glyph glyph-name="Y" unicode="&#x178;" horiz-adv-x="892" 
d="M759 700h213l-592 -555l-64 -145h-175l64 145l-97 555h213l58 -361z" />
    <glyph glyph-name="Y" unicode="&#xff;" horiz-adv-x="892" 
d="M759 700h213l-592 -555l-64 -145h-175l64 145l-97 555h213l58 -361z" />
    <glyph glyph-name="Y" unicode="&#xfd;" horiz-adv-x="892" 
d="M759 700h213l-592 -555l-64 -145h-175l64 145l-97 555h213l58 -361z" />
    <glyph glyph-name="Y" unicode="&#xdd;" horiz-adv-x="892" 
d="M759 700h213l-592 -555l-64 -145h-175l64 145l-97 555h213l58 -361z" />
    <glyph glyph-name="Y" unicode="y" horiz-adv-x="892" 
d="M759 700h213l-592 -555l-64 -145h-175l64 145l-97 555h213l58 -361z" />
    <glyph glyph-name="Z" unicode="Z" horiz-adv-x="1003" 
d="M1005 700l-65 -146l-620 -376h454l-80 -178h-773l58 129l648 393h-474l79 178h773z" />
    <glyph glyph-name="Z" unicode="z" horiz-adv-x="1003" 
d="M1005 700l-65 -146l-620 -376h454l-80 -178h-773l58 129l648 393h-474l79 178h773z" />
    <glyph glyph-name="nonbreakingspace" unicode="&#xa0;" horiz-adv-x="593" 
 />
    <glyph glyph-name="softhyphen" unicode="&#xad;" horiz-adv-x="0" 
 />
  </font>
</defs>
</svg>
